loading...
loading...






Info

Perfect Game


4.9
IMDB: 4.9/10 157 votes

Durata: N/A

Released:

Anno: 18 Apr 2000

Direttore:

Premi: 2 wins.

Stato: Released

Paese: USA

Cast:




Kanin, un ragazzo di 11 anni, ha un sogno: essere il miglior giocatore di baseball del mondo, o almeno non essere proprio l’ultima riserva. Le cose sembrano andare per il verso giusto quando l’allenatore Bobby lo fa entrare in squadra. Ma Kanin scopre presto che Bobby pensa che lui sia un pessimo giocatore e che lo sta usando solo per una scommessa. Deluso ma sicuro di sé, Kanin e altri piccoli “perdenti”, licenziano Bobby e si stringono attorno alla mamma di Kanin e al vecchio allenatore della……..

 

Trailer


Upload on Youtube

Info File

Video
ID : 0
Format : MPEG-4 Visual
Format settings, BVOP : Yes
Format settings, QPel : No
Format settings, GMC : No warppoints
Format settings, Matrix : Default (H.263)
Muxing mode : Packed bitstream
Codec ID : DX50
Codec ID/Hint : DivX 5
Duration : 1h 35mn
Bit rate : 2 002 Kbps
Width : 720 pixels
Height : 544 pixels
Display aspect ratio : 4:3
Frame rate : 25.000 fps
Color space : YUV
Chroma subsampling : 4:2:0
Bit depth : 8 bits
Scan type : Progressive
Bits/(Pixel*Frame) : 0.204
Stream size : 1.33 GiB (83%)
Title : Main
Writing library : DivX 6.2.5 (UTC 2006-07)

Audio #1
ID : 1
Format : MPEG Audio
Format version : Version 1
Format profile : Layer 3
Mode : Joint stereo
Mode extension : MS Stereo
Codec ID : 55
Codec ID/Hint : MP3
Duration : 1h 35mn
Bit rate mode : Constant
Bit rate : 192 Kbps
Channel(s) : 2 channels
Sampling rate : 48.0 KHz
Stream size : 131 MiB (8%)
Alignment : Split accross interleaves
Interleave, duration : 40 ms (1.00 video frame)
Interleave, preload duration : 500 ms
Title : Audio - it

Immagini

Vittoria Col Cuore – Perfect Game (2000) Giffoni, [DivX – Ita Eng Mp3]

Trackers

http://tracker.publicbt.com:80/
http://tracker.istole.it:80/
http://tracker.tntvillage.scambioetico.org:2710/scrape
http://open.demonii.com:1337/scrape
http://tracker.coppersurfer.tk:6969/scrape
http://tracker.openbittorrent.com/scrape