Vivere e morire a Los Angeles (1985), [BDmux]  (4.75 Gb)

Likes(0)Dislikes(0)
seeders: 12
leechers: 0








Info




Incassi: 17307019$

Stato: Released

Cast:




L’agente dei servizi segreti Richard Chance indaga sul contraffattore Eric Masters, che gli ha ucciso il partner Jimmy Hart durante una retata. Insieme al nuovo partner John Vukovich, Chance si lancia a testa bassa in una missione sotto copertura. Deciso a vendicarsi, Chance non intende guardare in faccia a nessuno e dimentica qualsiasi etica, mentre il collega cerca di tenerlo sotto controllo. Ma la violenza chiama altra violenza.

Scritto dal regista con Gerald Petievich, da un romanzo di quest’ultimo, è da molti considerato il miglior Friedkin di sempre, teso, allucinato e ricco di sequenze magistrali.

 

Trailer


Upload on Youtube

Info File

Video
ID: 1
Format: AVC
Format/Info: Advanced Video Codec
Format profile: [email protected]
Format settings, CABAC: Yes
Format settings, ReFrames: 5 frames
Codec ID: V_MPEG4/ISO/AVC
Duration: 1h 55mn
Bit rate: 5 241 Kbps
Width: 1 280 pixels
Height: 688 pixels
Display aspect ratio: 1.85:1
Frame rate mode: Constant
Frame rate: 23.976 fps
Color space: YUV
Chroma subsampling: 4:2:0
Bit depth: 8 bits
Scan type: Progressive
Bits/(Pixel*Frame): 0.248
Stream size: 4.14 GiB (87%)
Title: Vivere e morire a Los Angeles (William Friedkin, 1985)
Writing library: x264 core 148 r2721 72d53ab
Encoding settings: cabac=1 / ref=5 / deblock=1:-3:-3 / analyse=0x3:0x113 / me=umh / subme=8 / psy=1 / psy_rd=1.00:0.00 /
mixed_ref=1 / me_range=16 / chroma_me=1 / trellis=1 / 8x8dct=1 / cqm=0 / deadzone=21,11 / fast_pskip=1 / chroma_qp_offset=-2 /
threads=21 / lookahead_threads=3 / sliced_threads=0 / nr=0 / decimate=1 / interlaced=0 / bluray_compat=0 / constrained_intra=0 /
bframes=3 / b_pyramid=2 / b_adapt=1 / b_bias=0 / direct=3 / weightb=1 / open_gop=0 / weightp=2 / keyint=240 / keyint_min=24 /
scenecut=40 / intra_refresh=0 / rc_lookahead=50 / rc=2pass / mbtree=1 / bitrate=5241 / ratetol=1.0 / qcomp=0.60 / qpmin=0 /
qpmax=69 / qpstep=4 / cplxblur=20.0 / qblur=0.5 / ip_ratio=1.40 / aq=1:1.00
Language: English
Default: Yes
Forced: No

Audio #1
ID: 2
Format: AC-3
Format/Info: Audio Coding 3
Mode extension: CM (complete main)
Format settings, Endianness: Big
Codec ID: A_AC3
Duration: 1h 55mn
Bit rate mode: Constant
Bit rate: 192 Kbps
Channel count: 2 channels
Channel positions: Front: L R
Sampling rate: 48.0 KHz
Bit depth: 16 bits
Compression mode: Lossy
Stream size: 159 MiB (3%)
Title: Italiano AC3 2.0 192kbps
Language: Italian
Default: Yes
Forced: No

Immagini

Vivere e morire a Los Angeles (1985), [BDmux]
Vivere e morire a Los Angeles (1985), [BDmux]
Vivere e morire a Los Angeles (1985), [BDmux]
Vivere e morire a Los Angeles (1985), [BDmux]
Vivere e morire a Los Angeles (1985), [BDmux]
Vivere e morire a Los Angeles (1985), [BDmux]
Vivere e morire a Los Angeles (1985), [BDmux]
Vivere e morire a Los Angeles (1985), [BDmux]

Trackers

http://tracker.leechers-paradise.org:6969/scrape
http://tracker.tntvillage.scambioetico.org:2710/scrape
http://tracker.internetwarriors.net:1337/scrape
http://tracker.mg64.net:2710/scrape
http://tracker.openbittorrent.com/scrape
http://tracker.coppersurfer.tk:6969/scrape
http://IPv6.leechers-paradise.org:6969/scrape
http://tracker.tiny-vps.com:6969/scrape