loading...
loading...






Info

Promise Me This


7.0
IMDB: 7.0/10 4,824 votes

Durata: 137 min

Released:

Anno: 03 Jul 2007

Direttore:

Premi: 1 nomination.

Stato: Released

Paese: Serbia, France

Cast:




Il giovane Tsane vive con il nonno e la mucca Cvetka su una remota collina. Quando il nonno
avverte di essere arrivato agli ultimi giorni della sua vita, chiede al nipote di onorare tre promesse: Tsane
deve recarsi nella città più vicina e vendere la mucca al mercato, poi, con i soldi ricavati, deve comprare
un’icona religiosa e qualche cosa che desidera veramente per sé. In ultimo, deve trovare una moglie e
tornare a casa con lei prima della morte dell’anziano parente. Il giovane riesce a mantenere le prime due
promesse, ma la terza sembra veramente difficile da rispettare finché, un giorno, Tsane incontra Jasna.

Trailer


Upload on Youtube

Info File

Unique ID : 247986747770500884234861038849144720602
(0xBA9082A543CC176BA6B1648E3AFD0CDA)
Format : Matroska
File size : 1.14 GiB
Duration : 2h 2mn
Overall bit rate : 1 329 Kbps
Encoded date : UTC 2011-05-05 20:36:49
Writing application : mkvmerge v4.6.0 ('Still Crazy After All These Years') built on Mar 10 2011
02:50:32
Writing library : libebml v1.2.0 + libmatroska v1.1.0

Video

ID : 6
Format : MPEG-4 Visual
Format profile : [email protected]
Format settings, BVOP : No
Format settings, QPel : No
Format settings, GMC : No warppoints
Format settings, Matrix : Default (H.263)
Codec ID : XVID
Codec ID/Hint : XviD
Duration : 2h 2mn
Bit rate : 1 175 Kbps
Width : 640 pixels
Height : 360 pixels
Display aspect ratio : 16:9
Frame rate : 25.000 fps
Color space : YUV
Chroma subsampling : 4:2:0
Bit depth : 8 bits
Scan type : Progressive
Compression mode : Lossy
Bits/(Pixel*Frame) : 0.204
Stream size : 1.00 GiB (88%)
Writing library : Magic0432

Audio

ID : 7
Format : AC-3
Format/Info : Audio Coding 3
Mode extension : CM (complete main)
Muxing mode : Header stripping
Codec ID : A_AC3
Duration : 2h 2mn
Bit rate mode : Constant
Bit rate : 128 Kbps
Channel(s) : 2 channels
Channel positions : Front: L R
Sampling rate : 48.0 KHz
Bit depth : 16 bits
Compression mode : Lossy
Delay relative to video : 24ms
Stream size : 112 MiB (10%)
Language : Serbian

Text #1
ID : 1
Format : UTF-8
Codec ID : S_TEXT/UTF8
Codec ID/Info : UTF-8 Plain Text
Title : Eng
Language : English

Text #2
ID : 2
Format : UTF-8
Codec ID : S_TEXT/UTF8
Codec ID/Info : UTF-8 Plain Text
Title : Fre
Language : French

Text #3
ID : 3
Format : UTF-8
Codec ID : S_TEXT/UTF8
Codec ID/Info : UTF-8 Plain Text
Title : Ita
Language : Italian

Text #4
ID : 4
Format : UTF-8
Codec ID : S_TEXT/UTF8
Codec ID/Info : UTF-8 Plain Text
Title : Por
Language : Portuguese

Text #5
ID : 5
Format : UTF-8
Codec ID : S_TEXT/UTF8
Codec ID/Info : UTF-8 Plain Text
Title : Spa
Language : Spanish

Immagini

Zavet – Promettilo! (2007), [Xvid – Srb Ac3 – Sub MultiSub]

Trackers

http://tracker.publicbt.com:80/
http://tracker.istole.it:80/
http://tracker.tntvillage.scambioetico.org:2710/scrape
http://open.demonii.com:1337/scrape
http://tracker.coppersurfer.tk:6969/scrape
http://tracker.openbittorrent.com/scrape