Zombie Lover (2007), [XviD – Ita Ac3]  (1.37 Gb)

Likes(0)Dislikes(0)
seeders: 0
leechers: 1


loading...
loading...






Info

Zombie Love


7.2
IMDB: 7.2/10 107 votes

Durata: 37 min

Released:

Anno: 01 Apr 2007

Direttore:

Premi: 13 wins.

Stato: Released

Paese: USA, Netherlands





I gemelli Patrick e Carol Darlin vivono in una ricca e tranquilla cittadina dove tutto sembra sotto controllo. Dopo la loro laurea però la loro vita viene sconvolta dalla misteriosa scomparsa di un’amica, la bella Wend Gearst, di cui erano innamorati… Ma questo è ancora niente perchè durante un giro in auto i due si imbatteranno nel corpo dell’amica, scoprendo che è diventata una zombie e………………..

 

Trailer


Upload on Youtube

Info File

Complete name : Zombie Lover (2007).avi
Format : AVI
Format/Info : Audio Video Interleave
File size : 1.37 GiB
Duration : 1h 45mn
Overall bit rate : 1 851 Kbps
Writing application : VirtualDubMod 1.5.10.2 (build 2540/release)
Writing library : VirtualDubMod build 2540/release

Video
ID : 0
Format : MPEG-4 Visual
Format profile : Advanced [email protected]
Format settings, BVOP : Yes
Format settings, QPel : No
Format settings, GMC : No warppoints
Format settings, Matrix : Default (MPEG)
Codec ID : XVID
Codec ID/Hint : XviD
Duration : 1h 45mn
Bit rate : 1 649 Kbps
Width : 624 pixels
Height : 352 pixels
Display aspect ratio : 16:9
Frame rate : 25.000 fps
Color space : YUV
Chroma subsampling : 4:2:0
Bit depth : 8 bits
Scan type : Progressive
Bits/(Pixel*Frame) : 0.300
Stream size : 1.22 GiB (89%)
Writing library : XviD 1.2.1 (UTC 2008-12-04)

Audio
ID : 1
Format : AC-3
Format/Info : Audio Coding 3
Mode extension : CM (complete main)
Codec ID : 2000
Duration : 1h 45mn
Bit rate mode : Constant
Bit rate : 192 Kbps
Channel(s) : 2 channels
Channel positions : Front: L R
Sampling rate : 48.0 KHz
Bit depth : 16 bits
Stream size : 145 MiB (10%)
Alignment : Split accross interleaves
Interleave, duration : 40 ms (1.00 video frame)
Interleave, preload duration : 500 ms

Trackers

http://tracker.publicbt.com:80/
http://tracker.istole.it:80/
http://tracker.tntvillage.scambioetico.org:2710/scrape
http://open.demonii.com:1337/scrape
http://tracker.coppersurfer.tk:6969/scrape
http://tracker.openbittorrent.com/scrape