1. Il futuro.mkv
      945.05 Mb




Info

Il Futuro


5.8
IMDB: 5.8/10 784 votes

Durata: 94 min

Released:

Anno: 06 Sep 2013

Direttore:

Premi: 3 wins & 3 nominations.

Incassi: 13983$

Stato: Released

Paese: Italy, Chile, Germany, Spain

Cast:




Dopo aver perso i genitori in un incidente stradale, gli adolescenti Bianca e Tomas, di origini cilene, si trovano a dover gestire la propria esistenza senza nessuno su cui poter contare. A poco servono le sporadiche visite di un’assistente sociale. Ben presto, Il Libico e Il Bolognese, due ragazzi conosciuti da Tomas nella palestra in cui ha cominciato a lavoricchiare, si instaurano nella loro casa romana con un fine ben preciso: sfruttare l’avvenenza di Bianca per conquistare la fiducia di un vecchio attore di pellicole mitologiche che hanno intenzione di derubare.
Tratto da “Un romanzetto lumpen”, scritto da Roberto Bolaño (1953-2003) durante un soggiorno a Roma, il terzo lungometraggio di Alicia Scherson è una coproduzione tra Italia, Cile, Germania e Spagna. Non è difficile, del resto, percepire l’ambizione di intercettare un gusto internazionale, a partire dalla fotografia di Ricardo DeAngelis, già collaboratore della regista per i precedenti Play e Turistas, e dal cast in cui ben si amalgamano attori di scuole e origini diverse. Racconto di insolite e sbandate giovinezze tra tocchi ironici e meditabondi commenti in voce off, Il futuro mette in scena un degrado dell’anima che prima di ogni cosa è incapacità di metabolizzare il dolore. Privi di qualsiasi equilibrio, contribuisce in questo la loro condizione di immigrati, i due fratelli accettano di partecipare ad un piano criminale che potrebbe finire male. Lo fanno quasi svogliatamente, senza pensare alle conseguenze, come vivessero uno stato di continuo stand-by.
Se la prima parte scricchiola per certe caratterizzazioni sfocate e alcuni toni poco azzeccati, da quando Bianca entra nella villa di Maciste, il film guadagna in chiarezza e profondità: nonostante sia doppiato in maniera discutibile, infatti, Rutger Hauer si rivela la scelta perfetta per interpretare quest’attore e maestro d’armi celebre nella Cinecittà dei mitologici e da allora dimenticato. Non che le scene tra Bianca e Maciste siano perfette, alcune battute si potevano davvero evitare, ma il loro avvicinarsi è ben servito da una regia che diventa sempre più partecipe e vispa, sia nei movimenti di macchina che nei tagli delle inquadrature. È lì dopotutto il cuore della storia, come ha dichiarato la regista, infatti, il film “può essere visto come una nuova puntata nella saga di Maciste, dove la ragazza inerme alla fine sarà, come sempre, salvata.
Questa volta però dovrà trovare la via della salvezza da sola, abbandonare il suo eroe, scomparire e prepararsi per una nuova avventura”. Si tratta, in definitiva, di un lavoro imperfetto e forse irrisolto, ma non di rado attraente anche per quello sguardo puntuale sull’adolescenza e la crescita che non indulge mai in compiaciute morbosità. Presentato in concorso al Sundance Film Festival, all’International Film Festival Rotterdam e al RIFF – Rome Independent Film festival.

Trailer


Upload on Youtube

Info File

Video
ID : 1
Format : AVC
Format/Info : Advanced Video Codec
Format profile : [email protected]
Format settings, CABAC : Yes
Format settings, ReFrames : 4 frames
Codec ID : V_MPEG4/ISO/AVC
Duration : 1h 38mn
Bit rate : 1 054 Kbps
Width : 720 pixels
Height : 406 pixels
Display aspect ratio : 16:9
Frame rate mode : Constant
Frame rate : 29.970 (30000/1001) fps
Color space : YUV
Chroma subsampling : 4:2:0
Bit depth : 8 bits
Scan type : Progressive
Bits/(Pixel*Frame) : 0.120
Stream size : 745 MiB (79%)
Writing library : x264 core 130 r2273 b3065e6
Encoding settings : cabac=1 / ref=1 / deblock=1:0:0 / analyse=0x1:0x111 / me=hex / subme=2 / psy=1 / psy_rd=1.00:0.00 / mixed_ref=0 / me_range=16 / chroma_me=1 / trellis=0 / 8x8dct=0 / cqm=0 / deadzone=21,11 / fast_pskip=1 / chroma_qp_offset=0 / threads=3 / lookahead_threads=1 / sliced_threads=0 / nr=0 / decimate=1 / interlaced=0 / bluray_compat=0 / constrained_intra=0 / bframes=3 / b_pyramid=2 / b_adapt=1 / b_bias=0 / direct=1 / weightb=1 / open_gop=0 / weightp=1 / keyint=300 / keyint_min=30 / scenecut=40 / intra_refresh=0 / rc_lookahead=10 / rc=crf / mbtree=1 / crf=16.0 / qcomp=0.60 / qpmin=0 / qpmax=69 / qpstep=4 / vbv_maxrate=20000 / vbv_bufsize=25000 / crf_max=0.0 / nal_hrd=none / ip_ratio=1.40 / aq=1:1.00
Language : English
Default : Yes
Forced : No
Color range : Limited
Color primaries : BT.601 NTSC
Transfer characteristics : BT.709
Matrix coefficients : BT.601

Audio
ID : 2
Format : AC-3
Format/Info : Audio Coding 3
Mode extension : CM (complete main)
Format settings, Endianness : Big
Codec ID : A_AC3
Duration : 1h 38mn
Bit rate mode : Constant
Bit rate : 256 Kbps
Channel(s) : 2 channels
Channel positions : Front: L R
Sampling rate : 48.0 KHz
Frame rate : 31.250 fps (1536 spf)
Compression mode : Lossy
Stream size : 181 MiB (19%)
Language : Italian
Default : Yes
Forced : No

Text
ID : 3
Format : UTF-8
Codec ID : S_TEXT/UTF8
Codec ID/Info : UTF-8 Plain Text
Language : English
Default : No
Forced : No

Trackers

http://tracker.publicbt.com:80/
http://tracker.tntvillage.scambioetico.org:2710/scrape
http://tracker.istole.it:80/
http://open.demonii.com:1337/scrape
http://tracker.coppersurfer.tk:6969/scrape
http://tracker.openbittorrent.com/scrape