Info




Budget: 2000000$

Stato: Released

Cast:




È un tranquillo venerdì sera nella cittadina americana di Crescent Cove, quando un gruppo di adolescenti avvista una stella cadente dirigersi verso il bosco. Mike e Debbie, una coppia di fidanzati, decidono di seguirla. Arrivati sul luogo, scoprono che si tratta di una grande astronave a forma di tendone da circo. I due entrano nell’astronave ed esplorandola si accorgono di uno strano deposito, dove vengono immagazzinati esseri umani privi di vita intrappolati in bozzoli di zucchero filato. Vengono poi sorpresi da dei mostruosi clown armati di pistole spara pop corn, ma riescono a fuggire. Una volta tornati in città…

Trailer


Upload on Youtube

Info File

Video
ID : 1
Format : AVC
Format/Info : Advanced Video Codec
Format profile : [email protected]
Format settings, CABAC : Yes
Format settings, ReFrames : 3 frames
Muxing mode : Header stripping
Codec ID : V_MPEG4/ISO/AVC
Duration : 1h 22mn
Bit rate mode : Variable
Bit rate : 1 097 Kbps
Maximum bit rate : 40.0 Mbps
Width : 720 pixels
Height : 384 pixels
Display aspect ratio : 1.875
Frame rate : 25.000 fps
Color space : YUV
Chroma subsampling : 4:2:0
Bit depth : 8 bits
Scan type : Progressive
Bits/(Pixel*Frame) : 0.159
Stream size : 631 MiB (72%)
Writing library : x264 core 129 r2245 bc13772
Language : English

Audio #1
ID : 2
Format : AC-3
Format/Info : Audio Coding 3
Mode extension : CM (complete main)
Muxing mode : Header stripping
Codec ID : A_AC3
Duration : 1h 22mn
Bit rate mode : Constant
Bit rate : 192 Kbps
Channel(s) : 2 channels
Channel positions : Front: L R
Sampling rate : 48.0 KHz
Bit depth : 16 bits
Compression mode : Lossy
Stream size : 113 MiB (13%)
Title : Italiano
Language : Italian

Trackers

http://tracker.publicbt.com:80/
http://tracker.istole.it:80/
http://tracker.tntvillage.scambioetico.org:2710/scrape
http://open.demonii.com:1337/scrape
http://tracker.coppersurfer.tk:6969/scrape
http://tracker.openbittorrent.com/scrape

Torrent correlati

Torrent Name Dimm. Creato Seed Leech
691.5 Mb 1 anno fa 4 1
1.37 Gb 2 anni fa 2 1
698.35 Mb 2 anni fa 2 0
797.51 Mb 1 anno fa 0 2
698.21 Mb 1 anno fa 7 0