Info




Budget: 7000000$

Incassi: 5344577$

Stato: Released

Cast:




Paralizzato a causa di un incidente automobilistico, il giovane sportivo Allan Mann tenta il suicidio ma viene salvato dall’amico Geoffrey Fisherche ha l’idea di affiancargli una scimmina, Ella, che lui utilizza per esperimenti scientifici. Popo a poco l’animale si affeziona in maniera morboso all’uomo e…………………..

Storyline

When Allan becomes a quadriplegic he loses all hope for living until he meets Ella – a monkey trained to fetch and carry for him around the house, obeying him in all things. But Ella is part of another experiment, and when she starts responding to Allan’s underlying rage and frustration she has the ability to carry our her master’s darkest wishes.

Trailer


Upload on Youtube

Info File

Video
ID : 0
Format : MPEG-4 Visual
Format profile : Advanced [email protected]
Format settings, BVOP : Yes
Format settings, QPel : No
Format settings, GMC : No warppoints
Format settings, Matrix : Custom
Codec ID : XVID
Codec ID/Hint : XviD
Duration : 1h 52mn
Bit rate : 1 327 Kbps
Width : 608 pixels
Height : 336 pixels
Display aspect ratio : 16:9
Frame rate : 25.000 fps
Color space : YUV
Chroma subsampling : 4:2:0
Bit depth : 8 bits
Scan type : Progressive
Bits/(Pixel*Frame) : 0.260
Stream size : 1.05 GiB (72%)
Writing library : XviD 1.1.2 (UTC 2006-11-01)

Audio #1
ID : 1
Format : AC-3
Format/Info : Audio Coding 3
Mode extension : CM (complete main)
Codec ID : 2000
Duration : 1h 52mn
Bit rate mode : Constant
Bit rate : 384 Kbps
Channel(s) : 6 channels
Channel positions : Front: L C R, Side: L R, LFE
Sampling rate : 48.0 KHz
Bit depth : 16 bits
Stream size : 310 MiB (21%)
Alignment : Split accross interleaves
Interleave, duration : 40 ms (1.00 video frame)
Interleave, preload duration : 500 ms

Trackers

http://tracker.publicbt.com:80/
http://tracker.istole.it:80/
http://tracker.tntvillage.scambioetico.org:2710/scrape
http://open.demonii.com:1337/scrape
http://tracker.coppersurfer.tk:6969/scrape
http://tracker.openbittorrent.com/scrape