Info




Budget: 10500000$

Incassi: 14144000$

Stato: Released

Cast:




Carol Anne (Heather O’Rourke) nel tempo intermedio tra il secondo e il terzo film è stata spedita dai genitori a Chicago dalla zia Pat (Nancy Allen) e lo zio Bruce Gardner (Tom Skerritt) giusto per cambiare aria.

Un giorno a scuola, si scopre che Carol Anne è stata mandata dall’insegnante/psichiatra, il Dr. Seaton (Richard Fire), a discutere sui fatti che le erano successi in precedenza. Questo purtroppo, fa tornare Kane (Julian Beck) dal limbo, dove era stata mandata nel secondo film…………..

 

Trailer


Upload on Youtube

Info File

Video
ID : 0
Format : MPEG-4 Visual
Format profile : Advanced [email protected]
Format settings, BVOP : Yes
Format settings, QPel : No
Format settings, GMC : No warppoints
Format settings, Matrix : Custom
Codec ID : XVID
Codec ID/Hint : XviD
Duration : 1h 33mn
Bit rate : 1 837 Kbps
Width : 720 pixels
Height : 400 pixels
Display aspect ratio : 16:9
Frame rate : 25.000 fps
Color space : YUV
Chroma subsampling : 4:2:0
Bit depth : 8 bits
Scan type : Progressive
Bits/(Pixel*Frame) : 0.255
Stream size : 1.20 GiB (82%)
Writing library : XviD 1.2.1 (UTC 2008-12-04)

Audio #1
ID : 1
Format : AC-3
Format/Info : Audio Coding 3
Format profile : Dolby Digital
Mode extension : CM (complete main)
Codec ID : 2000
Duration : 1h 33mn
Bit rate mode : Constant
Bit rate : 192 Kbps
Channel(s) : 2 channels
Channel positions : Front: L R
Sampling rate : 48.0 KHz
Bit depth : 16 bits
Video delay : 24ms
Stream size : 129 MiB (9%)
Alignment : Split accross interleaves
Interleave, duration : 96 ms (2.40 video frames)
Interleave, preload duration : 96 ms
Language : Italian

Trackers

http://tracker.publicbt.com:80/
http://tracker.istole.it:80/
http://open.demonii.com:1337/scrape
http://tracker.tntvillage.scambioetico.org:2710/scrape
http://tracker.coppersurfer.tk:6969/scrape
http://tracker.openbittorrent.com/scrape