Info




Stato: Released

Tagline: 80

Cast:




Lester Person è un uomo ossessionato dalle scommesse sulle corse dei cavalli, nonché un moderno Landru cannibale. Egli seduce anziane donne facoltose e vedove al fine di estorcere loro denaro per le sue scommesse e pagare così i debiti di gioco. Ad un certo punto entra in scena un imitatore, che inizia ad uccidere vedove seguendo le modalità di Lester però lasciando in giro indizi con i quali la polizia riesce a risalire presto a Lester. Questi deve nascondersi e cercare stratagemmi per sfuggire alla polizia. Inoltre l’uomo non riesce più a scorgere la propria ombra…

Trailer


Upload on Youtube

Info File

Video
ID : 0
Format : MPEG-4 Visual
Format profile : [email protected]
Format settings, BVOP : Yes
Format settings, QPel : No
Format settings, GMC : No warppoints
Format settings, Matrix : Default (H.263)
Muxing mode : Packed bitstream
Codec ID : XVID
Codec ID/Hint : XviD
Duration : 1h 20mn
Bit rate : 1 199 Kbps
Width : 640 pixels
Height : 480 pixels
Display aspect ratio : 4:3
Frame rate : 29.970 fps
Resolution : 24 bits
Colorimetry : 4:2:0
Scan type : Progressive
Bits/(Pixel*Frame) : 0.130
Stream size : 693 MiB (81%)
Writing library : XviD 64

Audio #1
ID : 1
Format : MPEG Audio
Format version : Version 1
Format profile : Layer 3
Codec ID : 55
Codec ID/Hint : MP3
Duration : 1h 20mn
Bit rate mode : Constant
Bit rate : 128 Kbps
Channel(s) : 2 channels
Sampling rate : 44.1 KHz
Resolution : 16 bits
Stream size : 74.0 MiB (9%)
Alignment : Split accross interleaves
Interleave, duration : 32 ms (0.95 video frame)
Interleave, preload duration : 500 ms
Language : ITALIANO

Trackers

http://tracker.istole.it:80/
http://tracker.publicbt.com:80/
http://tracker.tntvillage.scambioetico.org:2710/scrape
http://open.demonii.com:1337/scrape
http://tracker.coppersurfer.tk:6969/scrape
http://tracker.openbittorrent.com/scrape