Info

user posted image

.: Scheda della serie :.
Ideatore: Steven S. DeKnight

Titolo originale Spartacus
Paese Stati Uniti d’America
Anno 2010-2013
Formato serie TV
Genere azione, storico, drammatico
Stagioni 3
Episodi 39
Durata 55 min (episodio)
Lingua originale inglese

Cast:
Andy Whitfield: Spartacus (st. 1)
Liam McIntyre: Spartacus (st. 2-3)
John Hannah: Quinto Lentulo Batiato
Lucy Lawless: Lucrezia
Peter Mensah: Maestro Enomao
Manu Bennett: Crisso
Viva Bianca: Ilizia
Dustin Clare: Gannicus
Craig Parker: Gaio Claudio Glabro
Simon Merrells: Marco Licinio Crasso
Todd Lasance: Gaio Giulio Cesare
Christian Antidormi: Tiberio Licinio Crasso
Jai Courtney: Varro
Katrina Law: Mira
Erin Cummings: Sura
Nick E. Tarabay: Ashur
Antonio Te Maioha: Barca
Lesley-Ann Brandt: Naevia (st. 1)
Cynthia Addai-Robinson: Naevia (st. 2-3)
Daniel Feuerriegel: Agron
Craig Walsh Wrightson: Marco Decio Solonio
Eka Darville: Pietro
Raicho Vasilev: Gneo
Brooke Williams: Aurelia
John Bach: Tito Calavio

Doppiatori Italiani:
Fabio Boccanera: Spartacus
Franco Mannella: Quinto Lentulo Batiato
Alessandra Cassioli: Lucrezia
Paolo Marchese: Maestro Enomao
Andrea Lavagnino: Crisso
Giò Giò Rapattoni: Ilizia
Fabrizio Vidale: Gannicus
Christian Iansante: Gaio Claudio Glabro
Francesco Bulckaen: Varro
Paola Majano: Mira
Letizia Scifoni: Sura
Alessandro Rigotti: Ashur
Marco Benvenuto: Barca
Francesca Fiorentini: Naevia
Gerolamo Alchieri: Marco Decio Solonio
Alessio Puccio: Pietro
Chiara Gioncardi: Aurelia

.: Info :.
Spartacus è una serie televisiva statunitense incentrata sulle gesta di Spartaco, gladiatore trace interpretato dall’attore australiano Andy Whitfield, successivamente sostituito da Liam McIntyre. Location delle gesta di Spartaco è l’Anfiteatro Campano di Santa Maria Capua Vetere (Caserta), ovvero l’Antica Capua, citata più volte nel serial dai protagonisti. L’Anfiteatro Campano è la seconda arena in Italia, dopo il Colosseo, per importanza.

Mescolando azione e pathos, la serie racconta le gesta del trace Spartaco, fatto prigioniero dai romani e divenuto gladiatore, e della sua rivolta contro la Repubblica romana nel 73 a.C., illustrando come poteva essere la vita da gladiatore del trace. È una serie trasmessa su un canale privato, Starz. Conseguentemente non subisce una forte censura, e sono numerose le scene a carattere erotico/sessuale e di violenza. L’intento è di rappresentare la società romana delle epoche delle Guerre Civili in modo vivo e intenso, senza mezze misure, ma con la violenza quotidiana del mondo dei gladiatori come quella provocata dagli intrighi delle classi più alte, che si abbandonano al contempo alla lussuria e agli agi. La fotografia e gli effetti visivi si ispirano alle note opere grafiche e cinematografiche di Frank Miller, come 300 e Sin City.[1]

La prima stagione, intitolata Spartacus – Sangue e sabbia (Spartacus: Blood and Sand) e composta da 13 episodi girati interamente in Nuova Zelanda, ha debuttato sul canale via cavo Starz il 22 gennaio 2010. Ancora prima della messa in onda del primo episodio, l’emittente ha ordinato una seconda stagione, intitolata Spartacus – La vendetta (Spartacus: Vengeance) e composta da 10 episodi.[2] A causa della malattia che ha colpito l’attore Andy Whitfield e in seguito l’ha portato al decesso nel settembre del 2011, la produzione si è vista costretta a un recasting del ruolo principale, che è stato assegnato all’attore australiano Liam McIntyre.[3] Il 7 novembre 2011, prima ancora della messa in onda della seconda stagione, la serie è stata rinnovata per una terza stagione, dal titolo Spartacus – La guerra dei dannati (Spartacus: War of the Damned).[4][5]

Il 17 febbraio 2011 la prima stagione ha debuttato sul canale satellitare Sky Uno. Per poter essere trasmessa in prima serata, viene trasmessa la versione censurata alleggerita dalle scene particolarmente spinte e di eccessiva violenza, viene tuttavia trasmessa senza alcuna censura in seconda serata dal 18 febbraio.

In attesa di realizzare la seconda stagione, è stata prodotta una miniserie televisiva prequel intitolata Spartacus – Gli dei dell’arena, andata in onda dal 21 gennaio al 25 febbraio 2011 su Starz e dal 25 agosto al 29 settembre 2011 su Sky Uno e in chiaro dal 9 aprile 2012 al 23 aprile 2012 su Cielo.

Info File

General
Unique ID : 24385091795762324656046793809797998071 (0x125865D9680C7D44EB37F7C7FF7265F7)
Complete name : Spartacus.Gods.Of.The.Arena.S01e01-06.ITA.ENG.576p.BDMux.(2011)-sp_54321/Spartacus.Gods.Of.The.Arena.S01e01.Past.Transgressions.mkv
Format : Matroska
Format version : Version 4 / Version 2
File size : 986 MiB
Duration : 52mn 47s
Overall bit rate : 2 610 Kbps
Encoded date : UTC 2017-03-18 07:05:49
Writing application : mkvmerge v9.6.0 ('Slave To Your Mind') 64bit
Writing library : libebml v1.3.4 + libmatroska v1.4.5
DURATION : 00:52:36.779000000
NUMBER_OF_FRAMES : 7
NUMBER_OF_BYTES : 169
_STATISTICS_WRITING_APP : mkvmerge v9.6.0 ('Slave To Your Mind') 64bit
_STATISTICS_WRITING_DATE_UTC : 2017-03-18 07:05:49
_STATISTICS_TAGS : BPS DURATION NUMBER_OF_FRAMES NUMBER_OF_BYTES

Video
ID : 1
Format : AVC
Format/Info : Advanced Video Codec
Format profile : [email protected]
Format settings, CABAC : Yes
Format settings, ReFrames : 8 frames
Codec ID : V_MPEG4/ISO/AVC
Duration : 52mn 47s
Bit rate : 1 662 Kbps
Width : 1 024 pixels
Height : 576 pixels
Display aspect ratio : 16:9
Frame rate mode : Constant
Frame rate : 23.976 fps
Color space : YUV
Chroma subsampling : 4:2:0
Bit depth : 8 bits
Scan type : Progressive
Bits/(Pixel*Frame) : 0.118
Stream size : 628 MiB (64%)
Writing library : x264 core 142 r2491 24e4fed
Encoding settings : cabac=1 / ref=8 / deblock=1:-1:-1 / analyse=0x1:0x131 / me=umh / subme=9 / psy=1 / psy_rd=1.00:0.15 / mixed_ref=1 / me_range=16 / chroma_me=1 / trellis=2 / 8x8dct=0 / cqm=0 / deadzone=21,11 / fast_pskip=1 / chroma_qp_offset=-3 / threads=3 / lookahead_threads=1 / sliced_threads=0 / nr=0 / decimate=1 / interlaced=0 / bluray_compat=0 / constrained_intra=0 / bframes=3 / b_pyramid=2 / b_adapt=2 / b_bias=0 / direct=3 / weightb=1 / open_gop=0 / weightp=2 / keyint=240 / keyint_min=24 / scenecut=40 / intra_refresh=0 / rc_lookahead=60 / rc=crf / mbtree=1 / crf=20.0 / qcomp=0.60 / qpmin=0 / qpmax=69 / qpstep=4 / vbv_maxrate=20000 / vbv_bufsize=25000 / crf_max=0.0 / nal_hrd=none / filler=0 / ip_ratio=1.40 / aq=1:1.00
Language : English
Default : Yes
Forced : No
Color range : Limited
Color primaries : BT.709
Transfer characteristics : BT.709
Matrix coefficients : BT.709

Audio #1
ID : 2
Format : AC-3
Format/Info : Audio Coding 3
Mode extension : CM (complete main)
Format settings, Endianness : Big
Codec ID : A_AC3
Duration : 52mn 47s
Bit rate mode : Constant
Bit rate : 448 Kbps
Channel(s) : 6 channels
Channel positions : Front: L C R, Side: L R, LFE
Sampling rate : 48.0 KHz
Compression mode : Lossy
Stream size : 169 MiB (17%)
Title : Italian Ac3 5.1
Language : Italian
Default : Yes
Forced : Yes

Audio #2
ID : 3
Format : AC-3
Format/Info : Audio Coding 3
Mode extension : CM (complete main)
Format settings, Endianness : Big
Codec ID : A_AC3
Duration : 52mn 47s
Bit rate mode : Constant
Bit rate : 448 Kbps
Channel(s) : 6 channels
Channel positions : Front: L C R, Side: L R, LFE
Sampling rate : 48.0 KHz
Compression mode : Lossy
Stream size : 169 MiB (17%)
Title : English Ac3 5.1
Language : English
Default : No
Forced : No

Text #1
ID : 4
Format : UTF-8
Codec ID : S_TEXT/UTF8
Codec ID/Info : UTF-8 Plain Text
Title : italian forced
Language : Italian
Default : Yes
Forced : Yes

Text #2
ID : 5
Format : UTF-8
Codec ID : S_TEXT/UTF8
Codec ID/Info : UTF-8 Plain Text
Title : italian
Language : Italian
Default : No
Forced : No

Text #3
ID : 6
Format : UTF-8
Codec ID : S_TEXT/UTF8
Codec ID/Info : UTF-8 Plain Text
Title : english
Language : English
Default : No
Forced : No

Menu
00:00:00.000 : en:00:00:00.000
00:08:09.989 : en:00:08:09.989
00:15:34.225 : en:00:15:34.225
00:23:06.302 : en:00:23:06.302
00:30:28.577 : en:00:30:28.577
00:42:57.033 : en:00:42:57.033
00:50:55.052 : en:00:50:55.052

Trackers

http://tracker.leechers-paradise.org:6969/scrape
http://tracker.tntvillage.scambioetico.org:2710/scrape
http://tracker.mg64.net:2710/scrape
http://tracker.coppersurfer.tk:6969/scrape
http://IPv6.leechers-paradise.org:6969/scrape
http://tracker.internetwarriors.net:1337/scrape
http://tracker.tiny-vps.com:6969/scrape
http://tracker.openbittorrent.com/scrape